osu file format v14

[General]
AudioFilename: Ferry Corsten - Many Ways (Radio Edit).mp3
AudioLeadIn: 1500
PreviewTime: 7734
Countdown: 0
SampleSet: Soft
StackLeniency: 0.7
Mode: 3
LetterboxInBreaks: 0
WidescreenStoryboard: 1

[Editor]
Bookmarks: 50741
DistanceSpacing: 0.8
BeatDivisor: 8
GridSize: 4
TimelineZoom: 3.599998

[Metadata]
Title:Many Ways (Radio Edit)
TitleUnicode:Many Ways (Radio Edit)
Artist:Ferry Corsten
ArtistUnicode:Ferry Corsten
Creator:[ Delores ]
Version:Hard
Source:
Tags:
BeatmapID:906941
BeatmapSetID:350514

[Difficulty]
HPDrainRate:9
CircleSize:4
OverallDifficulty:9
ApproachRate:5
SliderMultiplier:3.59999990463257
SliderTickRate:2

[Events]
//Background and Video events
0,0,"55d9380769401b09c67f0aef.jpg",0,0
//Break Periods
//Storyboard Layer 0 (Background)
//Storyboard Layer 1 (Fail)
//Storyboard Layer 2 (Pass)
//Storyboard Layer 3 (Foreground)
//Storyboard Sound Samples

[TimingPoints]
234,468.75,4,2,0,5,1,0

[HitObjects]
192,192,234,5,0,0:0:0:0:
64,192,234,128,0,2109:0:0:0:0:
448,192,234,1,0,0:0:0:0:
320,192,468,1,0,0:0:0:0:
448,192,702,1,0,0:0:0:0:
320,192,937,1,0,0:0:0:0:
192,192,1171,1,0,0:0:0:0:
448,192,1171,1,0,0:0:0:0:
320,192,1405,1,0,0:0:0:0:
448,192,1640,1,0,0:0:0:0:
320,192,1874,1,0,0:0:0:0:
192,192,2109,1,0,0:0:0:0:
448,192,2109,128,0,3984:0:0:0:0:
320,192,2343,1,0,0:0:0:0:
192,192,2577,1,0,0:0:0:0:
64,192,2812,1,0,0:0:0:0:
192,192,3046,1,0,0:0:0:0:
320,192,3046,1,0,0:0:0:0:
320,192,3280,1,0,0:0:0:0:
192,192,3515,1,0,0:0:0:0:
64,192,3749,1,0,0:0:0:0:
192,192,3984,1,0,0:0:0:0:
64,192,3984,128,0,5859:0:0:0:0:
320,192,4218,1,0,0:0:0:0:
448,192,4452,1,0,0:0:0:0:
320,192,4687,1,0,0:0:0:0:
192,192,4921,1,0,0:0:0:0:
448,192,4921,1,0,0:0:0:0:
320,192,5155,1,0,0:0:0:0:
448,192,5390,1,0,0:0:0:0:
320,192,5624,1,0,0:0:0:0:
448,192,5859,1,0,0:0:0:0:
320,192,5859,128,0,7734:0:0:0:0:
192,192,6093,1,0,0:0:0:0:
64,192,6327,1,0,0:0:0:0:
192,192,6562,1,0,0:0:0:0:
448,192,6796,1,0,0:0:0:0:
64,192,6796,1,0,0:0:0:0:
192,192,7030,1,0,0:0:0:0:
64,192,7265,1,0,0:0:0:0:
192,192,7499,1,0,0:0:0:0:
64,192,7734,128,0,9609:0:0:0:0:
192,192,7734,1,0,0:0:0:0:
320,192,7968,1,0,0:0:0:0:
448,192,8202,1,0,0:0:0:0:
320,192,8437,1,0,0:0:0:0:
192,192,8671,1,0,0:0:0:0:
320,192,8905,1,0,0:0:0:0:
448,192,9140,1,0,0:0:0:0:
320,192,9374,1,0,0:0:0:0:
192,192,9609,1,0,0:0:0:0:
448,192,9609,128,0,11484:0:0:0:0:
320,192,9843,1,0,0:0:0:0:
192,192,10077,1,0,0:0:0:0:
64,192,10312,1,0,0:0:0:0:
192,192,10546,1,0,0:0:0:0:
320,192,10780,1,0,0:0:0:0:
192,192,11015,1,0,0:0:0:0:
64,192,11249,1,0,0:0:0:0:
192,192,11484,1,0,0:0:0:0:
64,192,11484,128,0,13359:0:0:0:0:
320,192,11718,1,0,0:0:0:0:
448,192,11952,1,0,0:0:0:0:
320,192,12187,1,0,0:0:0:0:
192,192,12421,1,0,0:0:0:0:
320,192,12655,1,0,0:0:0:0:
448,192,12890,1,0,0:0:0:0:
320,192,13124,1,0,0:0:0:0:
320,192,13359,1,0,0:0:0:0:
192,192,13359,128,0,15234:0:0:0:0:
448,192,13593,1,0,0:0:0:0:
320,192,13827,1,0,0:0:0:0:
64,192,14062,1,0,0:0:0:0:
320,192,14296,1,0,0:0:0:0:
448,192,14530,1,0,0:0:0:0:
320,192,14765,1,0,0:0:0:0:
64,192,14999,1,0,0:0:0:0:
320,192,15234,1,0,0:0:0:0:
64,192,15234,128,0,17109:0:0:0:0:
448,192,15468,1,0,0:0:0:0:
320,192,15702,1,0,0:0:0:0:
192,192,15937,1,0,0:0:0:0:
320,192,16171,1,0,0:0:0:0:
448,192,16405,1,0,0:0:0:0:
320,192,16640,1,0,0:0:0:0:
192,192,16874,1,0,0:0:0:0:
320,192,17109,1,0,0:0:0:0:
448,192,17109,128,0,18984:0:0:0:0:
192,192,17343,1,0,0:0:0:0:
64,192,17577,1,0,0:0:0:0:
192,192,17812,1,0,0:0:0:0:
320,192,18046,1,0,0:0:0:0:
192,192,18280,1,0,0:0:0:0:
64,192,18515,1,0,0:0:0:0:
192,192,18749,1,0,0:0:0:0:
320,192,18984,1,0,0:0:0:0:
64,192,18984,128,0,20859:0:0:0:0:
192,192,19218,1,0,0:0:0:0:
320,192,19452,1,0,0:0:0:0:
448,192,19687,1,0,0:0:0:0:
320,192,19921,1,0,0:0:0:0:
192,192,20155,1,0,0:0:0:0:
320,192,20390,1,0,0:0:0:0:
448,192,20624,1,0,0:0:0:0:
192,192,20859,1,0,0:0:0:0:
320,192,20859,128,0,22734:0:0:0:0:
64,192,21093,1,0,0:0:0:0:
192,192,21327,1,0,0:0:0:0:
448,192,21562,1,0,0:0:0:0:
192,192,21796,1,0,0:0:0:0:
64,192,22030,1,0,0:0:0:0:
192,192,22265,1,0,0:0:0:0:
448,192,22499,1,0,0:0:0:0:
64,192,22734,1,0,0:0:0:0:
192,192,22734,1,0,0:0:0:0:
192,192,22968,1,0,0:0:0:0:
320,192,22968,1,0,0:0:0:0:
64,192,23202,1,0,0:0:0:0:
448,192,23202,1,0,0:0:0:0:
192,192,23202,1,0,0:0:0:0:
192,192,23437,1,0,0:0:0:0:
320,192,23437,1,0,0:0:0:0:
64,192,23671,1,0,0:0:0:0:
448,192,23671,1,0,0:0:0:0:
192,192,23905,1,0,0:0:0:0:
320,192,23905,1,0,0:0:0:0:
64,192,24140,1,0,0:0:0:0:
448,192,24140,1,0,0:0:0:0:
320,192,24140,1,0,0:0:0:0:
64,192,24374,1,0,0:0:0:0:
192,192,24374,1,0,0:0:0:0:
192,192,24609,1,0,0:0:0:0:
320,192,24609,1,0,0:0:0:0:
320,192,24843,1,0,0:0:0:0:
448,192,24843,1,0,0:0:0:0:
64,192,25077,1,0,0:0:0:0:
448,192,25077,1,0,0:0:0:0:
192,192,25077,1,0,0:0:0:0:
64,192,25312,1,0,0:0:0:0:
192,192,25312,1,0,0:0:0:0:
320,192,25546,1,0,0:0:0:0:
448,192,25546,1,0,0:0:0:0:
64,192,25780,1,0,0:0:0:0:
192,192,25780,1,0,0:0:0:0:
64,192,26015,1,0,0:0:0:0:
448,192,26015,1,0,0:0:0:0:
320,192,26015,1,0,0:0:0:0:
448,192,26249,1,0,0:0:0:0:
64,192,26249,1,0,0:0:0:0:
64,192,26484,1,0,0:0:0:0:
448,192,26484,1,0,0:0:0:0:
64,192,26718,1,0,0:0:0:0:
448,192,26718,1,0,0:0:0:0:
64,192,26952,1,0,0:0:0:0:
448,192,26952,1,0,0:0:0:0:
192,192,26952,1,0,0:0:0:0:
320,192,27187,1,0,0:0:0:0:
448,192,27187,1,0,0:0:0:0:
64,192,27421,1,0,0:0:0:0:
192,192,27421,1,0,0:0:0:0:
320,192,27655,1,0,0:0:0:0:
448,192,27655,1,0,0:0:0:0:
64,192,27890,1,0,0:0:0:0:
448,192,27890,1,0,0:0:0:0:
320,192,27890,1,0,0:0:0:0:
64,192,28124,1,0,0:0:0:0:
448,192,28124,1,0,0:0:0:0:
192,192,28359,1,0,0:0:0:0:
320,192,28359,1,0,0:0:0:0:
64,192,28593,1,0,0:0:0:0:
448,192,28593,1,0,0:0:0:0:
64,192,28827,1,0,0:0:0:0:
448,192,28827,1,0,0:0:0:0:
192,192,28827,1,0,0:0:0:0:
64,192,29062,1,0,0:0:0:0:
192,192,29062,1,0,0:0:0:0:
192,192,29296,1,0,0:0:0:0:
320,192,29296,1,0,0:0:0:0:
320,192,29530,1,0,0:0:0:0:
448,192,29530,1,0,0:0:0:0:
64,192,29765,1,0,0:0:0:0:
448,192,29765,1,0,0:0:0:0:
320,192,29765,1,0,0:0:0:0:
192,192,29999,1,0,0:0:0:0:
320,192,29999,1,0,0:0:0:0:
192,192,30234,1,0,0:0:0:0:
320,192,30234,1,0,0:0:0:0:
320,192,30468,1,0,0:0:0:0:
192,192,30468,1,0,0:0:0:0:
64,192,30702,1,0,0:0:0:0:
448,192,30702,1,0,0:0:0:0:
192,192,30702,1,0,0:0:0:0:
64,192,30937,1,0,0:0:0:0:
192,192,30937,1,0,0:0:0:0:
192,192,31171,1,0,0:0:0:0:
448,192,31171,1,0,0:0:0:0:
320,192,31405,1,0,0:0:0:0:
192,192,31405,1,0,0:0:0:0:
64,192,31640,1,0,0:0:0:0:
448,192,31640,1,0,0:0:0:0:
320,192,31640,1,0,0:0:0:0:
64,192,31874,1,0,0:0:0:0:
320,192,31874,1,0,0:0:0:0:
192,192,32109,1,0,0:0:0:0:
320,192,32109,1,0,0:0:0:0:
192,192,32343,1,0,0:0:0:0:
448,192,32343,1,0,0:0:0:0:
64,192,32577,1,0,0:0:0:0:
448,192,32577,1,0,0:0:0:0:
192,192,32577,1,0,0:0:0:0:
192,192,32812,1,0,0:0:0:0:
448,192,32812,1,0,0:0:0:0:
192,192,33046,1,0,0:0:0:0:
320,192,33046,1,0,0:0:0:0:
64,192,33280,1,0,0:0:0:0:
320,192,33280,1,0,0:0:0:0:
64,192,33515,1,0,0:0:0:0:
448,192,33515,1,0,0:0:0:0:
320,192,33515,1,0,0:0:0:0:
64,192,33749,1,0,0:0:0:0:
320,192,33749,1,0,0:0:0:0:
192,192,33984,1,0,0:0:0:0:
448,192,33984,1,0,0:0:0:0:
192,192,34218,1,0,0:0:0:0:
448,192,34218,1,0,0:0:0:0:
64,192,34452,1,0,0:0:0:0:
448,192,34452,1,0,0:0:0:0:
192,192,34452,1,0,0:0:0:0:
320,192,34687,1,0,0:0:0:0:
448,192,34687,1,0,0:0:0:0:
320,192,34921,1,0,0:0:0:0:
64,192,34921,1,0,0:0:0:0:
192,192,35155,1,0,0:0:0:0:
448,192,35155,1,0,0:0:0:0:
64,192,35390,1,0,0:0:0:0:
448,192,35390,1,0,0:0:0:0:
192,192,35390,1,0,0:0:0:0:
320,192,35624,1,0,0:0:0:0:
448,192,35624,1,0,0:0:0:0:
192,192,35859,1,0,0:0:0:0:
320,192,35859,1,0,0:0:0:0:
64,192,36093,1,0,0:0:0:0:
192,192,36093,1,0,0:0:0:0:
64,192,36327,1,0,0:0:0:0:
448,192,36327,1,0,0:0:0:0:
192,192,36327,1,0,0:0:0:0:
320,192,36562,1,0,0:0:0:0:
448,192,36562,1,0,0:0:0:0:
192,192,36796,1,0,0:0:0:0:
320,192,36796,1,0,0:0:0:0:
64,192,37030,1,0,0:0:0:0:
192,192,37030,1,0,0:0:0:0:
64,192,37265,1,0,0:0:0:0:
448,192,37265,1,0,0:0:0:0:
192,192,37265,1,0,0:0:0:0:
320,192,37499,1,0,0:0:0:0:
448,192,37499,1,0,0:0:0:0:
192,192,37734,1,0,0:0:0:0:
320,192,37734,1,0,0:0:0:0:
64,192,37968,1,0,0:0:0:0:
192,192,37968,1,0,0:0:0:0:
64,192,38202,1,0,0:0:0:0:
448,192,38202,1,0,0:0:0:0:
192,192,38202,1,0,0:0:0:0:
320,192,38437,1,0,0:0:0:0:
448,192,38437,1,0,0:0:0:0:
192,192,38671,1,0,0:0:0:0:
320,192,38671,1,0,0:0:0:0:
64,192,38905,1,0,0:0:0:0:
192,192,38905,1,0,0:0:0:0:
64,192,39140,1,0,0:0:0:0:
448,192,39140,1,0,0:0:0:0:
192,192,39140,1,0,0:0:0:0:
64,192,39374,1,0,0:0:0:0:
448,192,39374,1,0,0:0:0:0:
64,192,42890,1,0,0:0:0:0:
192,192,42890,1,0,0:0:0:0:
320,192,42890,1,0,0:0:0:0:
448,192,42890,1,0,0:0:0:0:
192,192,43359,1,0,0:0:0:0:
448,192,43359,1,0,0:0:0:0:
192,192,43827,1,0,0:0:0:0:
448,192,43827,1,0,0:0:0:0:
192,192,44296,1,0,0:0:0:0:
448,192,44296,1,0,0:0:0:0:
192,192,44765,1,0,0:0:0:0:
448,192,44765,1,0,0:0:0:0:
192,192,45234,1,0,0:0:0:0:
448,192,45234,1,0,0:0:0:0:
64,192,45468,1,0,0:0:0:0:
320,192,45468,1,0,0:0:0:0:
192,192,45702,1,0,0:0:0:0:
448,192,45702,1,0,0:0:0:0:
64,192,45937,1,0,0:0:0:0:
320,192,45937,1,0,0:0:0:0:
192,192,46171,1,0,0:0:0:0:
448,192,46171,1,0,0:0:0:0:
64,192,46405,1,0,0:0:0:0:
320,192,46405,1,0,0:0:0:0:
192,192,46640,1,0,0:0:0:0:
448,192,46640,1,0,0:0:0:0:
64,192,46874,1,0,0:0:0:0:
320,192,46874,1,0,0:0:0:0:
320,192,47109,1,0,0:0:0:0:
448,192,47109,1,0,0:0:0:0:
64,192,47226,1,0,0:0:0:0:
192,192,47226,1,0,0:0:0:0:
320,192,47343,1,0,0:0:0:0:
448,192,47343,1,0,0:0:0:0:
64,192,47460,1,0,0:0:0:0:
192,192,47460,1,0,0:0:0:0:
320,192,47577,1,0,0:0:0:0:
448,192,47577,1,0,0:0:0:0:
64,192,47694,1,0,0:0:0:0:
192,192,47694,1,0,0:0:0:0:
320,192,47812,1,0,0:0:0:0:
448,192,47812,1,0,0:0:0:0:
64,192,47929,1,0,0:0:0:0:
192,192,47929,1,0,0:0:0:0:
320,192,48046,1,0,0:0:0:0:
448,192,48046,1,0,0:0:0:0:
64,192,48163,1,0,0:0:0:0:
192,192,48163,1,0,0:0:0:0:
320,192,48280,1,0,0:0:0:0:
448,192,48280,1,0,0:0:0:0:
64,192,48398,1,0,0:0:0:0:
192,192,48398,1,0,0:0:0:0:
320,192,48515,1,0,0:0:0:0:
448,192,48515,1,0,0:0:0:0:
64,192,48632,1,0,0:0:0:0:
192,192,48632,1,0,0:0:0:0:
320,192,48749,1,0,0:0:0:0:
448,192,48749,1,0,0:0:0:0:
64,192,48866,1,0,0:0:0:0:
192,192,48866,1,0,0:0:0:0:
448,192,48984,1,0,0:0:0:0:
320,192,49042,1,0,0:0:0:0:
192,192,49101,1,0,0:0:0:0:
64,192,49101,1,0,0:0:0:0:
320,192,49159,1,0,0:0:0:0:
448,192,49218,1,0,0:0:0:0:
320,192,49276,1,0,0:0:0:0:
192,192,49335,1,0,0:0:0:0:
64,192,49394,1,0,0:0:0:0:
192,192,49452,1,0,0:0:0:0:
320,192,49511,1,0,0:0:0:0:
448,192,49511,1,0,0:0:0:0:
192,192,49569,1,0,0:0:0:0:
64,192,49628,1,0,0:0:0:0:
192,192,49687,1,0,0:0:0:0:
320,192,49745,1,0,0:0:0:0:
448,192,49804,1,0,0:0:0:0:
320,192,49862,1,0,0:0:0:0:
192,192,49921,1,0,0:0:0:0:
64,192,49921,1,0,0:0:0:0:
320,192,49980,1,0,0:0:0:0:
448,192,50038,1,0,0:0:0:0:
320,192,50097,1,0,0:0:0:0:
192,192,50155,1,0,0:0:0:0:
64,192,50214,1,0,0:0:0:0:
192,192,50273,1,0,0:0:0:0:
320,192,50331,1,0,0:0:0:0:
64,192,50390,128,0,50624:0:0:0:0:
192,192,50390,128,0,50624:0:0:0:0:
448,192,50390,128,0,50624:0:0:0:0:
64,192,50859,128,0,52734:0:0:0:0:
192,192,50859,1,0,0:0:0:0:
448,192,50859,1,0,0:0:0:0:
448,192,51093,1,0,0:0:0:0:
192,192,51327,1,0,0:0:0:0:
320,192,51327,1,0,0:0:0:0:
320,192,51562,1,0,0:0:0:0:
192,192,51796,1,0,0:0:0:0:
320,192,51796,1,0,0:0:0:0:
192,192,52030,1,0,0:0:0:0:
192,192,52265,1,0,0:0:0:0:
448,192,52265,1,0,0:0:0:0:
320,192,52499,1,0,0:0:0:0:
192,192,52734,128,0,54609:0:0:0:0:
320,192,52734,1,0,0:0:0:0:
448,192,52734,1,0,0:0:0:0:
64,192,52968,1,0,0:0:0:0:
64,192,53202,1,0,0:0:0:0:
448,192,53202,1,0,0:0:0:0:
320,192,53437,1,0,0:0:0:0:
320,192,53671,1,0,0:0:0:0:
448,192,53671,1,0,0:0:0:0:
448,192,53905,1,0,0:0:0:0:
64,192,54140,1,0,0:0:0:0:
320,192,54140,1,0,0:0:0:0:
64,192,54374,1,0,0:0:0:0:
320,192,54609,128,0,56484:0:0:0:0:
64,192,54609,1,0,0:0:0:0:
448,192,54609,1,0,0:0:0:0:
192,192,54843,1,0,0:0:0:0:
64,192,55077,1,0,0:0:0:0:
448,192,55077,1,0,0:0:0:0:
448,192,55312,1,0,0:0:0:0:
192,192,55546,1,0,0:0:0:0:
448,192,55546,1,0,0:0:0:0:
192,192,55780,1,0,0:0:0:0:
64,192,56015,1,0,0:0:0:0:
448,192,56015,1,0,0:0:0:0:
64,192,56249,1,0,0:0:0:0:
448,192,56484,128,0,58359:0:0:0:0:
192,192,56484,1,0,0:0:0:0:
64,192,56484,1,0,0:0:0:0:
192,192,56718,1,0,0:0:0:0:
64,192,56952,1,0,0:0:0:0:
320,192,56952,1,0,0:0:0:0:
320,192,57187,1,0,0:0:0:0:
192,192,57421,1,0,0:0:0:0:
64,192,57421,1,0,0:0:0:0:
192,192,57655,1,0,0:0:0:0:
192,192,57890,1,0,0:0:0:0:
320,192,57890,1,0,0:0:0:0:
64,192,58124,1,0,0:0:0:0:
64,192,58359,128,0,60234:0:0:0:0:
192,192,58359,1,0,0:0:0:0:
320,192,58359,1,0,0:0:0:0:
192,192,58593,1,0,0:0:0:0:
192,192,58827,1,0,0:0:0:0:
320,192,58827,1,0,0:0:0:0:
320,192,59062,1,0,0:0:0:0:
192,192,59296,1,0,0:0:0:0:
448,192,59296,1,0,0:0:0:0:
448,192,59530,1,0,0:0:0:0:
192,192,59765,1,0,0:0:0:0:
320,192,59765,1,0,0:0:0:0:
320,192,59999,1,0,0:0:0:0:
192,192,60234,128,0,62109:0:0:0:0:
320,192,60234,1,0,0:0:0:0:
448,192,60234,1,0,0:0:0:0:
64,192,60468,1,0,0:0:0:0:
320,192,60702,1,0,0:0:0:0:
448,192,60702,1,0,0:0:0:0:
320,192,60937,1,0,0:0:0:0:
448,192,61171,1,0,0:0:0:0:
64,192,61171,1,0,0:0:0:0:
448,192,61405,1,0,0:0:0:0:
320,192,61640,1,0,0:0:0:0:
64,192,61640,1,0,0:0:0:0:
448,192,61874,128,0,62109:0:0:0:0:
320,192,62109,128,0,63984:0:0:0:0:
64,192,62109,1,0,0:0:0:0:
192,192,62343,1,0,0:0:0:0:
64,192,62577,1,0,0:0:0:0:
448,192,62577,1,0,0:0:0:0:
64,192,62812,1,0,0:0:0:0:
64,192,63046,1,0,0:0:0:0:
192,192,63046,1,0,0:0:0:0:
192,192,63280,1,0,0:0:0:0:
64,192,63515,1,0,0:0:0:0:
448,192,63515,1,0,0:0:0:0:
448,192,63749,1,0,0:0:0:0:
448,192,63984,128,0,65390:0:0:0:0:
64,192,63984,1,0,0:0:0:0:
192,192,63984,1,0,0:0:0:0:
320,192,64218,1,0,0:0:0:0:
64,192,64452,1,0,0:0:0:0:
192,192,64452,1,0,0:0:0:0:
192,192,64687,1,0,0:0:0:0:
64,192,64921,1,0,0:0:0:0:
320,192,64921,1,0,0:0:0:0:
64,192,65155,1,0,0:0:0:0:
192,192,65390,1,0,0:0:0:0:
64,192,65390,128,0,65859:0:0:0:0:
320,192,65390,128,0,65859:0:0:0:0:
192,192,65859,1,0,0:0:0:0:
448,192,65859,1,0,0:0:0:0:
448,192,66093,1,0,0:0:0:0:
448,192,66327,1,0,0:0:0:0:
64,192,66327,1,0,0:0:0:0:
320,192,66327,1,0,0:0:0:0:
448,192,66562,1,0,0:0:0:0:
448,192,66796,1,0,0:0:0:0:
320,192,66796,1,0,0:0:0:0:
448,192,67030,1,0,0:0:0:0:
448,192,67265,1,0,0:0:0:0:
192,192,67265,1,0,0:0:0:0:
64,192,67265,1,0,0:0:0:0:
448,192,67499,128,0,67734:0:0:0:0:
320,192,67734,1,0,0:0:0:0:
192,192,67734,1,0,0:0:0:0:
320,192,67968,1,0,0:0:0:0:
320,192,68202,1,0,0:0:0:0:
64,192,68202,1,0,0:0:0:0:
448,192,68202,1,0,0:0:0:0:
320,192,68437,1,0,0:0:0:0:
320,192,68671,1,0,0:0:0:0:
448,192,68671,1,0,0:0:0:0:
320,192,68905,1,0,0:0:0:0:
320,192,69140,1,0,0:0:0:0:
192,192,69140,1,0,0:0:0:0:
448,192,69140,1,0,0:0:0:0:
320,192,69374,1,0,0:0:0:0:
192,192,69609,1,0,0:0:0:0:
320,192,69609,1,0,0:0:0:0:
192,192,69843,1,0,0:0:0:0:
192,192,70077,1,0,0:0:0:0:
448,192,70077,1,0,0:0:0:0:
64,192,70077,1,0,0:0:0:0:
192,192,70312,1,0,0:0:0:0:
192,192,70546,1,0,0:0:0:0:
64,192,70546,1,0,0:0:0:0:
192,192,70780,1,0,0:0:0:0:
192,192,71015,1,0,0:0:0:0:
320,192,71015,1,0,0:0:0:0:
448,192,71015,1,0,0:0:0:0:
192,192,71249,1,0,0:0:0:0:
448,192,71249,128,0,71484:0:0:0:0:
64,192,71484,1,0,0:0:0:0:
192,192,71484,1,0,0:0:0:0:
64,192,71718,1,0,0:0:0:0:
64,192,71952,1,0,0:0:0:0:
448,192,71952,1,0,0:0:0:0:
320,192,71952,1,0,0:0:0:0:
64,192,72187,1,0,0:0:0:0:
64,192,72421,1,0,0:0:0:0:
320,192,72421,1,0,0:0:0:0:
64,192,72655,1,0,0:0:0:0:
64,192,72890,1,0,0:0:0:0:
192,192,72890,1,0,0:0:0:0:
448,192,72890,1,0,0:0:0:0:
64,192,73124,1,0,0:0:0:0:
448,192,73359,1,0,0:0:0:0:
320,192,73359,1,0,0:0:0:0:
448,192,73593,1,0,0:0:0:0:
192,192,73593,1,0,0:0:0:0:
64,192,73827,1,0,0:0:0:0:
448,192,73827,1,0,0:0:0:0:
320,192,73827,1,0,0:0:0:0:
448,192,74062,1,0,0:0:0:0:
192,192,74062,1,0,0:0:0:0:
448,192,74296,1,0,0:0:0:0:
320,192,74296,1,0,0:0:0:0:
448,192,74530,1,0,0:0:0:0:
192,192,74530,1,0,0:0:0:0:
64,192,74765,1,0,0:0:0:0:
448,192,74765,1,0,0:0:0:0:
320,192,74765,1,0,0:0:0:0:
192,192,74999,1,0,0:0:0:0:
448,192,74999,128,0,75234:0:0:0:0:
320,192,75234,1,0,0:0:0:0:
64,192,75234,1,0,0:0:0:0:
320,192,75468,1,0,0:0:0:0:
448,192,75468,1,0,0:0:0:0:
320,192,75702,1,0,0:0:0:0:
64,192,75702,1,0,0:0:0:0:
192,192,75702,1,0,0:0:0:0:
320,192,75937,1,0,0:0:0:0:
64,192,75937,1,0,0:0:0:0:
320,192,76171,1,0,0:0:0:0:
192,192,76171,1,0,0:0:0:0:
320,192,76405,1,0,0:0:0:0:
448,192,76405,1,0,0:0:0:0:
64,192,76640,1,0,0:0:0:0:
320,192,76640,1,0,0:0:0:0:
192,192,76640,1,0,0:0:0:0:
320,192,76874,1,0,0:0:0:0:
64,192,76874,1,0,0:0:0:0:
192,192,77109,1,0,0:0:0:0:
320,192,77109,1,0,0:0:0:0:
192,192,77343,1,0,0:0:0:0:
448,192,77343,1,0,0:0:0:0:
192,192,77577,1,0,0:0:0:0:
64,192,77577,1,0,0:0:0:0:
320,192,77577,1,0,0:0:0:0:
192,192,77812,1,0,0:0:0:0:
64,192,77812,1,0,0:0:0:0:
192,192,78046,1,0,0:0:0:0:
320,192,78046,1,0,0:0:0:0:
192,192,78280,1,0,0:0:0:0:
448,192,78280,1,0,0:0:0:0:
192,192,78515,1,0,0:0:0:0:
64,192,78515,1,0,0:0:0:0:
320,192,78515,1,0,0:0:0:0:
64,192,78749,1,0,0:0:0:0:
448,192,78749,128,0,78984:0:0:0:0:
64,192,78984,1,0,0:0:0:0:
64,192,79218,1,0,0:0:0:0:
320,192,79218,1,0,0:0:0:0:
64,192,79452,1,0,0:0:0:0:
448,192,79452,1,0,0:0:0:0:
192,192,79452,1,0,0:0:0:0:
64,192,79687,1,0,0:0:0:0:
448,192,79687,1,0,0:0:0:0:
64,192,79921,1,0,0:0:0:0:
320,192,79921,1,0,0:0:0:0:
64,192,80155,1,0,0:0:0:0:
192,192,80155,1,0,0:0:0:0:
64,192,80390,1,0,0:0:0:0:
448,192,80390,1,0,0:0:0:0:
320,192,80390,1,0,0:0:0:0:
64,192,80624,1,0,0:0:0:0:
320,192,80624,1,0,0:0:0:0:
192,192,80859,128,0,82265:0:0:0:0:
320,192,80859,128,0,81796:0:0:0:0:
64,192,80859,128,0,82734:0:0:0:0:
192,192,82734,128,0,84609:0:0:0:0:
320,192,84609,128,0,86484:0:0:0:0:
192,192,86484,128,0,88359:0:0:0:0:
64,192,88359,128,0,90234:0:0:0:0:
320,192,88593,1,0,0:0:0:0:
448,192,88827,1,0,0:0:0:0:
320,192,89062,1,0,0:0:0:0:
192,192,89296,1,0,0:0:0:0:
320,192,89530,1,0,0:0:0:0:
448,192,89765,1,0,0:0:0:0:
320,192,89999,1,0,0:0:0:0:
192,192,90234,128,0,92109:0:0:0:0:
448,192,90234,1,0,0:0:0:0:
320,192,90468,1,0,0:0:0:0:
64,192,90702,1,0,0:0:0:0:
320,192,90937,1,0,0:0:0:0:
448,192,91171,1,0,0:0:0:0:
320,192,91405,1,0,0:0:0:0:
64,192,91640,1,0,0:0:0:0:
320,192,91874,1,0,0:0:0:0:
320,192,92109,128,0,93984:0:0:0:0:
64,192,92109,1,0,0:0:0:0:
192,192,92343,1,0,0:0:0:0:
448,192,92577,1,0,0:0:0:0:
192,192,92812,1,0,0:0:0:0:
64,192,93046,1,0,0:0:0:0:
192,192,93280,1,0,0:0:0:0:
448,192,93515,1,0,0:0:0:0:
192,192,93749,1,0,0:0:0:0:
448,192,93984,128,0,95859:0:0:0:0:
64,192,93984,1,0,0:0:0:0:
192,192,94218,1,0,0:0:0:0:
320,192,94452,1,0,0:0:0:0:
192,192,94687,1,0,0:0:0:0:
64,192,94921,1,0,0:0:0:0:
192,192,95155,1,0,0:0:0:0:
320,192,95390,1,0,0:0:0:0:
192,192,95624,1,0,0:0:0:0:
320,192,95859,1,0,0:0:0:0:
320,192,96327,1,0,0:0:0:0:
320,192,96796,1,0,0:0:0:0:
320,192,97265,1,0,0:0:0:0:
192,192,97734,1,0,0:0:0:0:
192,192,98202,1,0,0:0:0:0:
192,192,98671,1,0,0:0:0:0:
192,192,99140,1,0,0:0:0:0:
320,192,99609,1,0,0:0:0:0:
320,192,100077,1,0,0:0:0:0:
320,192,100546,1,0,0:0:0:0:
320,192,101015,1,0,0:0:0:0:
64,192,101484,1,0,0:0:0:0:
64,192,101952,1,0,0:0:0:0:
64,192,102421,1,0,0:0:0:0:
64,192,102890,1,0,0:0:0:0:
192,192,103359,1,0,0:0:0:0:
320,192,103593,1,0,0:0:0:0:
448,192,103827,1,0,0:0:0:0:
320,192,104062,1,0,0:0:0:0:
192,192,104296,1,0,0:0:0:0:
64,192,104530,1,0,0:0:0:0:
192,192,104765,1,0,0:0:0:0:
320,192,104999,1,0,0:0:0:0:
192,192,105234,1,0,0:0:0:0:
64,192,105468,1,0,0:0:0:0:
192,192,105702,1,0,0:0:0:0:
320,192,105937,1,0,0:0:0:0:
192,192,106171,1,0,0:0:0:0:
320,192,106405,1,0,0:0:0:0:
448,192,106640,1,0,0:0:0:0:
320,192,106874,1,0,0:0:0:0:
192,192,107109,1,0,0:0:0:0:
64,192,107343,1,0,0:0:0:0:
192,192,107577,1,0,0:0:0:0:
320,192,107812,1,0,0:0:0:0:
448,192,108046,1,0,0:0:0:0:
320,192,108280,1,0,0:0:0:0:
192,192,108515,1,0,0:0:0:0:
64,192,108749,1,0,0:0:0:0:
192,192,108984,1,0,0:0:0:0:
320,192,109218,1,0,0:0:0:0:
448,192,109452,1,0,0:0:0:0:
64,192,109687,5,0,0:0:0:0:
192,192,109921,128,0,110859:0:0:0:0:
320,192,109921,128,0,110859:0:0:0:0:
64,192,110859,5,0,0:0:0:0:
448,192,110859,1,0,0:0:0:0:
192,192,111327,1,0,0:0:0:0:
448,192,111327,1,0,0:0:0:0:
64,192,111327,1,0,0:0:0:0:
192,192,111796,1,0,0:0:0:0:
320,192,111796,1,0,0:0:0:0:
448,192,111796,1,0,0:0:0:0:
192,192,112265,1,0,0:0:0:0:
320,192,112265,1,0,0:0:0:0:
64,192,112265,1,0,0:0:0:0:
64,192,112734,1,0,0:0:0:0:
192,192,112734,1,0,0:0:0:0:
320,192,112968,1,0,0:0:0:0:
448,192,112968,1,0,0:0:0:0:
64,192,113202,1,0,0:0:0:0:
192,192,113202,1,0,0:0:0:0:
320,192,113437,1,0,0:0:0:0:
448,192,113437,1,0,0:0:0:0:
64,192,113671,1,0,0:0:0:0:
192,192,113671,1,0,0:0:0:0:
320,192,113905,1,0,0:0:0:0:
448,192,113905,1,0,0:0:0:0:
64,192,114140,1,0,0:0:0:0:
192,192,114140,1,0,0:0:0:0:
320,192,114374,1,0,0:0:0:0:
448,192,114374,1,0,0:0:0:0:
64,192,114609,1,0,0:0:0:0:
448,192,114726,1,0,0:0:0:0:
64,192,114843,1,0,0:0:0:0:
448,192,114960,1,0,0:0:0:0:
64,192,115077,1,0,0:0:0:0:
448,192,115194,1,0,0:0:0:0:
64,192,115312,1,0,0:0:0:0:
448,192,115429,1,0,0:0:0:0:
64,192,115546,1,0,0:0:0:0:
448,192,115663,1,0,0:0:0:0:
64,192,115780,1,0,0:0:0:0:
448,192,115898,1,0,0:0:0:0:
64,192,116015,1,0,0:0:0:0:
448,192,116132,1,0,0:0:0:0:
64,192,116249,1,0,0:0:0:0:
448,192,116366,1,0,0:0:0:0:
64,192,116484,1,0,0:0:0:0:
192,192,116542,1,0,0:0:0:0:
320,192,116601,1,0,0:0:0:0:
448,192,116659,1,0,0:0:0:0:
64,192,116718,1,0,0:0:0:0:
192,192,116776,1,0,0:0:0:0:
320,192,116835,1,0,0:0:0:0:
448,192,116894,1,0,0:0:0:0:
64,192,116952,1,0,0:0:0:0:
192,192,117011,1,0,0:0:0:0:
320,192,117069,1,0,0:0:0:0:
448,192,117128,1,0,0:0:0:0:
320,192,117187,1,0,0:0:0:0:
192,192,117245,1,0,0:0:0:0:
64,192,117304,1,0,0:0:0:0:
448,192,117362,1,0,0:0:0:0:
320,192,117421,1,0,0:0:0:0:
192,192,117480,1,0,0:0:0:0:
64,192,117538,1,0,0:0:0:0:
448,192,117597,1,0,0:0:0:0:
320,192,117655,1,0,0:0:0:0:
192,192,117714,1,0,0:0:0:0:
64,192,117773,1,0,0:0:0:0:
192,192,117831,1,0,0:0:0:0:
64,192,117890,128,0,118241:0:0:0:0:
320,192,117890,128,0,118241:0:0:0:0:
448,192,117890,128,0,118241:0:0:0:0:
448,192,118359,128,0,118593:0:0:0:0:
64,192,118359,1,0,0:0:0:0:
320,192,118359,1,0,0:0:0:0:
320,192,118593,128,0,118827:0:0:0:0:
64,192,118827,128,0,119062:0:0:0:0:
192,192,118827,1,0,0:0:0:0:
448,192,118827,1,0,0:0:0:0:
192,192,119062,128,0,119296:0:0:0:0:
448,192,119296,128,0,119530:0:0:0:0:
64,192,119296,1,0,0:0:0:0:
320,192,119296,1,0,0:0:0:0:
320,192,119530,128,0,119765:0:0:0:0:
64,192,119765,128,0,119999:0:0:0:0:
192,192,119765,1,0,0:0:0:0:
448,192,119765,1,0,0:0:0:0:
448,192,119999,128,0,120234:0:0:0:0:
320,192,120234,1,0,0:0:0:0:
192,192,120234,1,0,0:0:0:0:
64,192,120234,128,0,120468:0:0:0:0:
192,192,120468,128,0,120702:0:0:0:0:
448,192,120702,128,0,120937:0:0:0:0:
64,192,120702,1,0,0:0:0:0:
320,192,120702,1,0,0:0:0:0:
320,192,120937,128,0,121171:0:0:0:0:
64,192,121171,128,0,121405:0:0:0:0:
192,192,121171,1,0,0:0:0:0:
448,192,121171,1,0,0:0:0:0:
192,192,121405,128,0,121640:0:0:0:0:
448,192,121640,128,0,121874:0:0:0:0:
64,192,121640,1,0,0:0:0:0:
320,192,121640,1,0,0:0:0:0:
320,192,121874,128,0,122109:0:0:0:0:
64,192,122109,128,0,122343:0:0:0:0:
192,192,122109,1,0,0:0:0:0:
448,192,122109,1,0,0:0:0:0:
192,192,122343,128,0,122577:0:0:0:0:
320,192,122577,128,0,122812:0:0:0:0:
64,192,122577,1,0,0:0:0:0:
448,192,122577,1,0,0:0:0:0:
448,192,122812,128,0,123046:0:0:0:0:
64,192,123046,1,0,0:0:0:0:
320,192,123046,128,0,123280:0:0:0:0:
192,192,123046,1,0,0:0:0:0:
192,192,123280,128,0,123515:0:0:0:0:
64,192,123515,128,0,123749:0:0:0:0:
320,192,123515,1,0,0:0:0:0:
448,192,123515,1,0,0:0:0:0:
448,192,123749,128,0,123984:0:0:0:0:
192,192,123984,128,0,124218:0:0:0:0:
64,192,123984,1,0,0:0:0:0:
320,192,123984,1,0,0:0:0:0:
64,192,124218,128,0,124452:0:0:0:0:
448,192,124218,1,0,0:0:0:0:
192,192,124452,128,0,124687:0:0:0:0:
320,192,124452,1,0,0:0:0:0:
448,192,124452,1,0,0:0:0:0:
320,192,124687,128,0,124921:0:0:0:0:
64,192,124687,1,0,0:0:0:0:
448,192,124921,128,0,125155:0:0:0:0:
192,192,124921,1,0,0:0:0:0:
64,192,124921,1,0,0:0:0:0:
320,192,125155,128,0,125390:0:0:0:0:
192,192,125155,1,0,0:0:0:0:
192,192,125390,128,0,125624:0:0:0:0:
448,192,125390,1,0,0:0:0:0:
64,192,125390,1,0,0:0:0:0:
64,192,125624,128,0,125859:0:0:0:0:
320,192,125624,1,0,0:0:0:0:
448,192,125859,128,0,126093:0:0:0:0:
192,192,125859,1,0,0:0:0:0:
320,192,125859,1,0,0:0:0:0:
320,192,126093,128,0,126327:0:0:0:0:
64,192,126093,1,0,0:0:0:0:
192,192,126327,128,0,126562:0:0:0:0:
64,192,126327,1,0,0:0:0:0:
448,192,126327,1,0,0:0:0:0:
320,192,126562,128,0,126796:0:0:0:0:
448,192,126562,1,0,0:0:0:0:
448,192,126796,128,0,127030:0:0:0:0:
64,192,126796,1,0,0:0:0:0:
192,192,126796,1,0,0:0:0:0:
320,192,127030,128,0,127265:0:0:0:0:
192,192,127030,1,0,0:0:0:0:
192,192,127265,128,0,127499:0:0:0:0:
64,192,127265,1,0,0:0:0:0:
448,192,127265,1,0,0:0:0:0:
448,192,127499,128,0,127734:0:0:0:0:
320,192,127499,1,0,0:0:0:0:
64,192,127734,128,0,127968:0:0:0:0:
192,192,127734,1,0,0:0:0:0:
320,192,127734,1,0,0:0:0:0:
192,192,127968,128,0,128202:0:0:0:0:
320,192,127968,1,0,0:0:0:0:
320,192,128202,128,0,128437:0:0:0:0:
64,192,128202,1,0,0:0:0:0:
448,192,128202,1,0,0:0:0:0:
192,192,128437,128,0,128671:0:0:0:0:
448,192,128437,1,0,0:0:0:0:
64,192,128671,128,0,128905:0:0:0:0:
320,192,128671,1,0,0:0:0:0:
448,192,128671,1,0,0:0:0:0:
192,192,128905,128,0,129140:0:0:0:0:
320,192,128905,1,0,0:0:0:0:
320,192,129140,128,0,129374:0:0:0:0:
64,192,129140,1,0,0:0:0:0:
448,192,129140,1,0,0:0:0:0:
192,192,129374,128,0,129609:0:0:0:0:
64,192,129374,1,0,0:0:0:0:
448,192,129609,128,0,129843:0:0:0:0:
320,192,129609,1,0,0:0:0:0:
64,192,129609,1,0,0:0:0:0:
320,192,129843,128,0,130077:0:0:0:0:
192,192,129843,1,0,0:0:0:0:
64,192,130077,128,0,130312:0:0:0:0:
192,192,130077,1,0,0:0:0:0:
448,192,130077,1,0,0:0:0:0:
192,192,130312,128,0,130546:0:0:0:0:
320,192,130312,1,0,0:0:0:0:
320,192,130546,128,0,130780:0:0:0:0:
64,192,130546,1,0,0:0:0:0:
448,192,130546,1,0,0:0:0:0:
448,192,130780,128,0,131015:0:0:0:0:
192,192,130780,1,0,0:0:0:0:
320,192,131015,128,0,131249:0:0:0:0:
64,192,131015,1,0,0:0:0:0:
192,192,131015,1,0,0:0:0:0:
448,192,131249,128,0,131484:0:0:0:0:
192,192,131249,1,0,0:0:0:0:
192,192,131484,128,0,131718:0:0:0:0:
64,192,131484,1,0,0:0:0:0:
320,192,131484,1,0,0:0:0:0:
64,192,131718,128,0,131952:0:0:0:0:
320,192,131718,1,0,0:0:0:0:
320,192,131952,128,0,132187:0:0:0:0:
192,192,131952,1,0,0:0:0:0:
448,192,131952,1,0,0:0:0:0:
448,192,132187,128,0,132421:0:0:0:0:
192,192,132187,1,0,0:0:0:0:
64,192,132421,1,0,0:0:0:0:
320,192,132421,1,0,0:0:0:0:
192,192,132421,128,0,132655:0:0:0:0:
320,192,132655,128,0,132890:0:0:0:0:
192,192,132890,1,0,0:0:0:0:
64,192,132890,128,0,133359:0:0:0:0:
448,192,132890,128,0,133359:0:0:0:0:
192,192,133359,1,0,0:0:0:0:
320,192,133359,1,0,0:0:0:0:
320,192,133593,1,0,0:0:0:0:
64,192,133827,1,0,0:0:0:0:
192,192,133827,1,0,0:0:0:0:
448,192,133827,1,0,0:0:0:0:
448,192,134062,1,0,0:0:0:0:
192,192,134296,1,0,0:0:0:0:
320,192,134296,1,0,0:0:0:0:
192,192,134530,1,0,0:0:0:0:
64,192,134765,1,0,0:0:0:0:
320,192,134765,1,0,0:0:0:0:
448,192,134765,1,0,0:0:0:0:
64,192,134999,1,0,0:0:0:0:
192,192,135234,1,0,0:0:0:0:
320,192,135234,1,0,0:0:0:0:
320,192,135468,1,0,0:0:0:0:
64,192,135702,1,0,0:0:0:0:
192,192,135702,1,0,0:0:0:0:
448,192,135702,1,0,0:0:0:0:
448,192,135937,1,0,0:0:0:0:
320,192,136171,1,0,0:0:0:0:
192,192,136171,1,0,0:0:0:0:
192,192,136405,1,0,0:0:0:0:
64,192,136640,1,0,0:0:0:0:
448,192,136640,1,0,0:0:0:0:
320,192,136640,1,0,0:0:0:0:
320,192,136874,1,0,0:0:0:0:
192,192,137109,1,0,0:0:0:0:
448,192,137109,1,0,0:0:0:0:
192,192,137343,1,0,0:0:0:0:
64,192,137577,1,0,0:0:0:0:
320,192,137577,1,0,0:0:0:0:
448,192,137577,1,0,0:0:0:0:
64,192,137812,1,0,0:0:0:0:
320,192,138046,1,0,0:0:0:0:
192,192,138046,1,0,0:0:0:0:
320,192,138280,1,0,0:0:0:0:
192,192,138515,1,0,0:0:0:0:
64,192,138515,1,0,0:0:0:0:
448,192,138515,1,0,0:0:0:0:
448,192,138749,1,0,0:0:0:0:
64,192,138984,1,0,0:0:0:0:
320,192,138984,1,0,0:0:0:0:
64,192,139218,1,0,0:0:0:0:
192,192,139452,1,0,0:0:0:0:
320,192,139452,1,0,0:0:0:0:
448,192,139452,1,0,0:0:0:0:
192,192,139687,1,0,0:0:0:0:
64,192,139921,1,0,0:0:0:0:
448,192,139921,1,0,0:0:0:0:
448,192,140155,1,0,0:0:0:0:
64,192,140390,1,0,0:0:0:0:
192,192,140390,1,0,0:0:0:0:
320,192,140390,1,0,0:0:0:0:
320,192,140624,1,0,0:0:0:0:
192,192,140859,1,0,0:0:0:0:
448,192,140859,1,0,0:0:0:0:
192,192,141093,1,0,0:0:0:0:
64,192,141327,1,0,0:0:0:0:
448,192,141327,1,0,0:0:0:0:
320,192,141327,1,0,0:0:0:0:
448,192,141562,1,0,0:0:0:0:
64,192,141796,1,0,0:0:0:0:
192,192,141796,1,0,0:0:0:0:
320,192,142030,1,0,0:0:0:0:
64,192,142265,1,0,0:0:0:0:
192,192,142265,1,0,0:0:0:0:
448,192,142265,1,0,0:0:0:0:
64,192,142499,1,0,0:0:0:0:
192,192,142734,1,0,0:0:0:0:
320,192,142734,1,0,0:0:0:0:
192,192,142968,1,0,0:0:0:0:
448,192,143202,1,0,0:0:0:0:
320,192,143202,1,0,0:0:0:0:
64,192,143202,1,0,0:0:0:0:
320,192,143437,1,0,0:0:0:0:
64,192,143671,1,0,0:0:0:0:
448,192,143671,1,0,0:0:0:0:
64,192,143905,1,0,0:0:0:0:
192,192,144140,1,0,0:0:0:0:
320,192,144140,1,0,0:0:0:0:
448,192,144140,1,0,0:0:0:0:
320,192,144374,1,0,0:0:0:0:
192,192,144609,1,0,0:0:0:0:
64,192,144609,1,0,0:0:0:0:
192,192,144843,1,0,0:0:0:0:
64,192,145077,1,0,0:0:0:0:
320,192,145077,1,0,0:0:0:0:
448,192,145077,1,0,0:0:0:0:
64,192,145312,1,0,0:0:0:0:
192,192,145546,1,0,0:0:0:0:
448,192,145546,1,0,0:0:0:0:
448,192,145780,1,0,0:0:0:0:
448,192,146015,1,0,0:0:0:0:
64,192,146015,1,0,0:0:0:0:
192,192,146015,1,0,0:0:0:0:
320,192,146249,1,0,0:0:0:0:
320,192,146484,1,0,0:0:0:0:
192,192,146484,128,0,148359:0:0:0:0:
64,192,146484,1,0,0:0:0:0:
448,192,146718,1,0,0:0:0:0:
320,192,146952,1,0,0:0:0:0:
64,192,146952,1,0,0:0:0:0:
448,192,146952,1,0,0:0:0:0:
320,192,147187,1,0,0:0:0:0:
64,192,147421,1,0,0:0:0:0:
448,192,147421,1,0,0:0:0:0:
320,192,147655,1,0,0:0:0:0:
64,192,147890,1,0,0:0:0:0:
448,192,147890,1,0,0:0:0:0:
320,192,147890,1,0,0:0:0:0:
448,192,148124,1,0,0:0:0:0:
320,192,148359,128,0,150234:0:0:0:0:
64,192,148359,128,0,150234:0:0:0:0:
192,192,150234,128,0,152109:0:0:0:0:
320,192,152109,128,0,153984:0:0:0:0:
448,192,153984,128,0,155859:0:0:0:0:
64,192,155859,128,0,157734:0:0:0:0:
192,192,157734,128,0,159609:0:0:0:0:
320,192,159609,128,0,161484:0:0:0:0:
448,192,161484,128,0,168984:0:0:0:0:
64,192,161484,128,0,168984:0:0:0:0:
192,192,168984,1,0,0:0:0:0:
320,192,168984,128,0,169218:0:0:0:0:
64,192,169452,128,0,169687:0:0:0:0:
320,192,169452,1,0,0:0:0:0:
448,192,169452,1,0,0:0:0:0:
64,192,169921,1,0,0:0:0:0:
448,192,169921,1,0,0:0:0:0:
320,192,169921,128,0,170155:0:0:0:0:
64,192,170390,1,0,0:0:0:0:
448,192,170390,1,0,0:0:0:0:
320,192,170390,128,0,170624:0:0:0:0:
64,192,170859,1,0,0:0:0:0:
448,192,170859,1,0,0:0:0:0:
320,192,170859,1,0,0:0:0:0:
64,192,171093,1,0,0:0:0:0:
192,192,171093,1,0,0:0:0:0:
320,192,171327,1,0,0:0:0:0:
192,192,171327,1,0,0:0:0:0:
64,192,171562,1,0,0:0:0:0:
192,192,171562,1,0,0:0:0:0:
448,192,171796,1,0,0:0:0:0:
320,192,171796,1,0,0:0:0:0:
192,192,172030,1,0,0:0:0:0:
320,192,172030,1,0,0:0:0:0:
448,192,172265,1,0,0:0:0:0:
320,192,172265,1,0,0:0:0:0:
192,192,172499,1,0,0:0:0:0:
64,192,172499,1,0,0:0:0:0:
192,192,172734,1,0,0:0:0:0:
320,192,172851,1,0,0:0:0:0:
448,192,172968,1,0,0:0:0:0:
320,192,173085,1,0,0:0:0:0:
192,192,173202,1,0,0:0:0:0:
64,192,173319,1,0,0:0:0:0:
192,192,173437,1,0,0:0:0:0:
320,192,173554,1,0,0:0:0:0:
448,192,173671,1,0,0:0:0:0:
320,192,173788,1,0,0:0:0:0:
192,192,173905,1,0,0:0:0:0:
64,192,174023,1,0,0:0:0:0:
192,192,174140,1,0,0:0:0:0:
320,192,174257,1,0,0:0:0:0:
448,192,174374,1,0,0:0:0:0:
320,192,174491,1,0,0:0:0:0:
192,192,174609,1,0,0:0:0:0:
64,192,174667,1,0,0:0:0:0:
192,192,174726,1,0,0:0:0:0:
320,192,174784,1,0,0:0:0:0:
448,192,174843,1,0,0:0:0:0:
64,192,174901,1,0,0:0:0:0:
192,192,174960,1,0,0:0:0:0:
320,192,175019,1,0,0:0:0:0:
192,192,175077,1,0,0:0:0:0:
320,192,175136,1,0,0:0:0:0:
448,192,175194,1,0,0:0:0:0:
320,192,175253,1,0,0:0:0:0:
192,192,175312,1,0,0:0:0:0:
320,192,175370,1,0,0:0:0:0:
192,192,175429,1,0,0:0:0:0:
64,192,175487,1,0,0:0:0:0:
320,192,175546,1,0,0:0:0:0:
448,192,175605,1,0,0:0:0:0:
320,192,175663,1,0,0:0:0:0:
192,192,175722,1,0,0:0:0:0:
64,192,175780,1,0,0:0:0:0:
192,192,175839,1,0,0:0:0:0:
320,192,175898,1,0,0:0:0:0:
448,192,175956,1,0,0:0:0:0:
64,192,176015,128,0,176366:0:0:0:0:
192,192,176015,128,0,176366:0:0:0:0:
320,192,176015,128,0,176366:0:0:0:0:
448,192,176484,128,0,176718:0:0:0:0:
192,192,176484,1,0,0:0:0:0:
320,192,176484,1,0,0:0:0:0:
64,192,176718,1,0,0:0:0:0:
448,192,176952,128,0,177187:0:0:0:0:
64,192,176952,1,0,0:0:0:0:
320,192,176952,1,0,0:0:0:0:
192,192,177187,1,0,0:0:0:0:
448,192,177421,128,0,177655:0:0:0:0:
64,192,177421,1,0,0:0:0:0:
192,192,177421,1,0,0:0:0:0:
320,192,177655,1,0,0:0:0:0:
448,192,177890,128,0,178124:0:0:0:0:
64,192,177890,1,0,0:0:0:0:
320,192,177890,1,0,0:0:0:0:
64,192,178124,128,0,178359:0:0:0:0:
192,192,178124,1,0,0:0:0:0:
320,192,178359,128,0,178593:0:0:0:0:
448,192,178359,1,0,0:0:0:0:
192,192,178359,1,0,0:0:0:0:
448,192,178593,1,0,0:0:0:0:
320,192,178827,128,0,179062:0:0:0:0:
64,192,178827,1,0,0:0:0:0:
192,192,178827,1,0,0:0:0:0:
192,192,179062,1,0,0:0:0:0:
192,192,179296,1,0,0:0:0:0:
448,192,179296,1,0,0:0:0:0:
320,192,179296,128,0,179530:0:0:0:0:
64,192,179530,1,0,0:0:0:0:
320,192,179765,128,0,179999:0:0:0:0:
64,192,179765,1,0,0:0:0:0:
192,192,179765,1,0,0:0:0:0:
192,192,179999,1,0,0:0:0:0:
192,192,180234,128,0,180468:0:0:0:0:
320,192,180234,1,0,0:0:0:0:
448,192,180234,1,0,0:0:0:0:
320,192,180468,1,0,0:0:0:0:
192,192,180702,128,0,180937:0:0:0:0:
64,192,180702,1,0,0:0:0:0:
320,192,180702,1,0,0:0:0:0:
448,192,180937,1,0,0:0:0:0:
192,192,181171,128,0,181405:0:0:0:0:
320,192,181171,1,0,0:0:0:0:
448,192,181171,1,0,0:0:0:0:
320,192,181405,1,0,0:0:0:0:
192,192,181640,128,0,181874:0:0:0:0:
64,192,181640,1,0,0:0:0:0:
320,192,181640,1,0,0:0:0:0:
448,192,181874,128,0,182109:0:0:0:0:
64,192,181874,1,0,0:0:0:0:
64,192,182109,128,0,182343:0:0:0:0:
192,192,182109,1,0,0:0:0:0:
320,192,182109,1,0,0:0:0:0:
192,192,182343,1,0,0:0:0:0:
64,192,182577,128,0,182812:0:0:0:0:
192,192,182577,1,0,0:0:0:0:
448,192,182577,1,0,0:0:0:0:
320,192,182812,1,0,0:0:0:0:
64,192,183046,128,0,183280:0:0:0:0:
192,192,183046,1,0,0:0:0:0:
320,192,183046,1,0,0:0:0:0:
448,192,183280,1,0,0:0:0:0:
64,192,183515,128,0,183749:0:0:0:0:
192,192,183515,1,0,0:0:0:0:
448,192,183515,1,0,0:0:0:0:
320,192,183749,1,0,0:0:0:0:
448,192,183984,128,0,184218:0:0:0:0:
64,192,183984,1,0,0:0:0:0:
320,192,183984,1,0,0:0:0:0:
192,192,184218,1,0,0:0:0:0:
448,192,184452,128,0,184687:0:0:0:0:
192,192,184452,1,0,0:0:0:0:
320,192,184452,1,0,0:0:0:0:
64,192,184687,1,0,0:0:0:0:
448,192,184921,128,0,185155:0:0:0:0:
64,192,184921,1,0,0:0:0:0:
320,192,184921,1,0,0:0:0:0:
192,192,185155,1,0,0:0:0:0:
448,192,185390,128,0,185624:0:0:0:0:
64,192,185390,1,0,0:0:0:0:
192,192,185390,1,0,0:0:0:0:
64,192,185624,128,0,185859:0:0:0:0:
320,192,185624,1,0,0:0:0:0:
320,192,185859,128,0,186093:0:0:0:0:
192,192,185859,1,0,0:0:0:0:
448,192,185859,1,0,0:0:0:0:
192,192,186093,1,0,0:0:0:0:
320,192,186327,128,0,186562:0:0:0:0:
192,192,186327,1,0,0:0:0:0:
448,192,186327,1,0,0:0:0:0:
64,192,186562,1,0,0:0:0:0:
320,192,186796,128,0,187030:0:0:0:0:
64,192,186796,1,0,0:0:0:0:
448,192,186796,1,0,0:0:0:0:
192,192,187030,1,0,0:0:0:0:
320,192,187265,128,0,187499:0:0:0:0:
64,192,187265,1,0,0:0:0:0:
192,192,187265,1,0,0:0:0:0:
448,192,187499,1,0,0:0:0:0:
192,192,187734,128,0,187968:0:0:0:0:
64,192,187734,1,0,0:0:0:0:
448,192,187734,1,0,0:0:0:0:
320,192,187968,1,0,0:0:0:0:
192,192,188202,128,0,188437:0:0:0:0:
320,192,188202,1,0,0:0:0:0:
448,192,188202,1,0,0:0:0:0:
64,192,188437,1,0,0:0:0:0:
192,192,188671,128,0,188905:0:0:0:0:
64,192,188671,1,0,0:0:0:0:
448,192,188671,1,0,0:0:0:0:
320,192,188905,1,0,0:0:0:0:
192,192,189140,128,0,189374:0:0:0:0:
64,192,189140,1,0,0:0:0:0:
320,192,189140,1,0,0:0:0:0:
448,192,189374,1,0,0:0:0:0:
64,192,189609,1,0,0:0:0:0:
320,192,189609,1,0,0:0:0:0:
448,192,189609,128,0,189843:0:0:0:0:
320,192,189843,128,0,190077:0:0:0:0:
192,192,190077,128,0,190312:0:0:0:0:
64,192,190077,1,0,0:0:0:0:
448,192,190077,1,0,0:0:0:0:
64,192,190312,128,0,190546:0:0:0:0:
448,192,190546,128,0,190780:0:0:0:0:
192,192,190546,1,0,0:0:0:0:
320,192,190546,1,0,0:0:0:0:
320,192,190780,128,0,191015:0:0:0:0:
192,192,191015,128,0,191249:0:0:0:0:
64,192,191015,1,0,0:0:0:0:
448,192,191015,1,0,0:0:0:0:
64,192,191249,128,0,192421:0:0:0:0:
